梦幻天堂·龙网

 找回密码
 立即注册
查看: 6092|回复: 51

[最新电影龙网转发] 【龙网转发】【黄志忠姜武郭涛2024犯罪新片】【三叉戟】【WebDL-2160p.MKV】【国语】

[复制链接]

2905

主题

3万

帖子

7万

积分

九鼎龙王·坛主

偶系漂漂滴龙民

Rank: 46Rank: 46Rank: 46Rank: 46Rank: 46Rank: 46

积分
76098

航子大神勋章

发表于 2024-6-20 15:05:20 | 显示全部楼层 |阅读模式
海报





译  名 三叉戟/中国警察
片  名 Three Old Boys
年  代 2024
国  家 中国
类  别 犯罪/剧情
语  言 汉语普通话
字  幕 中英硬字幕
评  分 5.1/10 from 7,448 users
链  接 https://movie.douban.com/subject/26903951
文件大小 2.80 GB
片  长 109 Min
导  演 高群书 Qunshu Gao
主  演 黄志忠 Zhizhong Huang
     姜武 Wu Jiang
     郭涛 Tao Guo
     欧豪 Oho Ou
     韩庚 Geng Han
     董勇 Yong Dong
     金士杰 Shih-Chieh King
     魏晨 Vision Wei
     邢佳栋 Jiadong Xing
     苏鑫 Xin Su
     徐励 Li Xu

简介

  影片聚焦警界传奇“三叉戟”组合——“大背头”崔铁军(黄志忠 饰)、“大棍子”徐国柱(姜武 饰)、“大喷子”潘江海(郭涛 饰)。三位警界老炮在临近退休之际,意外卷入一场惊心动魄的巨额金融大案!

  幕后黑手企图解冻数十亿资产,不惜雇佣黑道势力动用极端手段进行洗钱。一切的背后隐藏着更为错综复杂的罪恶网络与人脉关系。面对对手的诱惑与重重困难,“三叉戟”能否坚定信念,携手破获此案,将罪犯绳之以法?

Video
Format                         : HEVC
Format/Info                    : High Efficiency Video Coding
Format profile                 : Main@L5@Main
Codec ID                       : V_MPEGH/ISO/HEVC
Duration                       : 1 h 48 min
Bit rate                       : 3 257 kb/s
Width                          : 3 840 pixels
Height                         : 1 608 pixels
Display aspect ratio           : 2.40:1
Frame rate mode                : Constant
Frame rate                     : 24.000 FPS
Color space                    : YUV
Chroma subsampling             : 4:2:0
Bit depth                      : 8 bits
Bits/(Pixel*Frame)             : 0.022
Stream size                    : 2.47 GiB (88%)
Color range                    : Limited
Color primaries                : BT.709
Transfer characteristics       : BT.709
Matrix coefficients            : BT.709

Audio
Format                         : E-AC-3
Format/Info                    : Enhanced AC-3
Commercial name                : Dolby Digital Plus
Codec ID                       : A_EAC3
Duration                       : 1 h 48 min
Bit rate mode                  : Constant
Bit rate                       : 448 kb/s
Channel(s)                     : 6 channels
Channel layout                 : L R C LFE Ls Rs
Sampling rate                  : 48.0 kHz
Frame rate                     : 31.250 FPS (1536 SPF)
Compression mode               : Lossy
Stream size                    : 348 MiB (12%)
Service kind                   : Complete Main

截图




BT种子下载
梦幻天堂·龙网(www.321n.net).三叉戟.中国警察.torrent (29.31 KB, 下载次数: 2108)

1

主题

801

帖子

2665

积分

赤血神龙

Rank: 20Rank: 20Rank: 20Rank: 20

积分
2665
QQ
发表于 2024-6-20 15:26:00 | 显示全部楼层
坚持就是胜利

0

主题

685

帖子

1781

积分

升龙霸·VIP

Rank: 22Rank: 22Rank: 22Rank: 22

积分
1781

龙网VIP·银徽龙网VIP·银牌龙网VIP·金勋

发表于 2024-6-20 15:35:01 | 显示全部楼层
感谢航子又发新片

1

主题

8956

帖子

1万

积分

神界龙王

Rank: 30Rank: 30Rank: 30Rank: 30

积分
13233
发表于 2024-6-20 18:58:07 | 显示全部楼层

谢谢楼主分享

1

主题

1508

帖子

4541

积分

赤血神龙

Rank: 20Rank: 20Rank: 20Rank: 20

积分
4541
QQ
发表于 2024-6-20 20:02:33 | 显示全部楼层
tks for share............

2

主题

2万

帖子

3万

积分

神界龙王

Rank: 30Rank: 30Rank: 30Rank: 30

积分
30344
发表于 2024-6-20 21:10:02 | 显示全部楼层
多谢航子分享
戏剧人生

1

主题

351

帖子

1543

积分

升龙霸·VIP

Rank: 22Rank: 22Rank: 22Rank: 22

积分
1543

龙网VIP·银星龙网VIP·金徽龙网VIP·银牌龙网VIP·银章龙网VIP·金勋

发表于 2024-6-20 21:36:33 | 显示全部楼层
发片了
No Zuo No Die!

0

主题

219

帖子

6703

积分

海龙王

Rank: 25Rank: 25Rank: 25Rank: 25Rank: 25

积分
6703
发表于 2024-6-21 00:32:09 | 显示全部楼层
感谢航子分享~

0

主题

1130

帖子

4387

积分

赤血神龙

Rank: 20Rank: 20Rank: 20Rank: 20

积分
4387
发表于 2024-6-21 07:55:42 | 显示全部楼层
感謝航子的分享.

0

主题

1634

帖子

2303

积分

升龙霸·VIP

Rank: 22Rank: 22Rank: 22Rank: 22

积分
2303

龙网VIP·金勋

发表于 2024-6-21 09:08:13 | 显示全部楼层
多谢航子分享

2

主题

3079

帖子

5533

积分

海龙王

Rank: 25Rank: 25Rank: 25Rank: 25Rank: 25

积分
5533
发表于 2024-6-21 09:11:32 | 显示全部楼层
谢谢楼主分享

0

主题

1万

帖子

1万

积分

神界龙王

Rank: 30Rank: 30Rank: 30Rank: 30

积分
17509
QQ
发表于 2024-6-21 12:40:19 | 显示全部楼层
感谢航子分享
一切终会过去

0

主题

343

帖子

3016

积分

赤血神龙

Rank: 20Rank: 20Rank: 20Rank: 20

积分
3016
发表于 2024-6-21 13:28:32 | 显示全部楼层
感谢航子,辛苦发片!!

0

主题

3943

帖子

5046

积分

海龙王

Rank: 25Rank: 25Rank: 25Rank: 25Rank: 25

积分
5046
发表于 2024-6-21 18:05:03 | 显示全部楼层
感谢航子无私分享精彩资源

7

主题

709

帖子

3565

积分

升龙霸·VIP

Rank: 22Rank: 22Rank: 22Rank: 22

积分
3565

龙网VIP·银牌龙网VIP·银章龙网VIP·银勋

发表于 2024-6-21 21:37:18 | 显示全部楼层
谢谢分享
您需要登录后才可以回帖 登录 | 立即注册

本版积分规则

小黑屋|梦幻天堂·龙网

GMT+8, 2024-7-13 21:00 , Processed in 0.297617 second(s), 27 queries , Gzip On.

Powered by Discuz! X3.2

© 2001-2013 Comsenz Inc.

快速回复 返回顶部 返回列表