梦幻天堂·龙网

 找回密码
 立即注册
查看: 6478|回复: 85

[最新电影龙网转发] 【龙网转发】【刘德华宁浩2024新喜剧剧情】【红毯先生】【WebDL-1080p.MKV】【中字】

[复制链接]

2905

主题

3万

帖子

7万

积分

九鼎龙王·坛主

偶系漂漂滴龙民

Rank: 46Rank: 46Rank: 46Rank: 46Rank: 46Rank: 46

积分
76098

航子大神勋章

发表于 2024-6-24 17:24:24 | 显示全部楼层 |阅读模式
海报





译  名 红毯先生/全民明星
片  名 The Movie Emperor
年  代 2024
国  家 中国/中国香港
类  别 喜剧/剧情
语  言 汉语普通话/粤语
字  幕 中简/中繁
评  分 6.7/10 from 62,147 users
链  接 https://movie.douban.com/subject/35494829
文件大小 4.15 GB
片  长 122 Min
导  演 宁浩 Hao Ning
主  演 刘德华 Andy Lau
     单立文 Pal Sinn
     瑞玛·席丹 Rima Zeidan
     余伟国 Daniel Yu
     宁浩 Hao Ning
     林熙蕾 Kelly Lin
     梁家辉 Tony Leung
     杨千嬅 Miriam Yeung
     王晶 Jing Wong
     张子贤 Zixian Zhang
     刘漪琳 Eliz Lao

简介

  香港天王巨星刘伟驰(刘德华 饰)从影四十年,一直渴望得影帝。他决定与导演林浩(宁浩 饰)合作拍摄农村题材影片,从而在电影节赢得国际声誉。为此,刘伟驰深入农村体验生活、亲自拉投资、拒绝用替身,却因此引发了一系列令人哭笑不得的荒诞闹剧,也展现了娱乐圈的众生百态。

Video
Format                         : AVC
Format/Info                    : Advanced Video Codec
Format profile                 : High @ L4.1
Format settings                : CABAC / 4 Ref Frames
Format settings, CABAC         : Yes
Format settings, Reference fra : 4 frames
Format settings, GOP           : M=4, N=50
Codec ID                       : V_MPEG4/ISO/AVC
Duration                       : 2 h 1 min
Bit rate mode                  : Variable
Bit rate                       : 4 808 kb/s
Width                          : 1 920 pixels
Height                         : 1 080 pixels
Display aspect ratio           : 16:9
Active Format Description      : Full frame 16:9 image
Frame rate mode                : Constant
Frame rate                     : 25.000 FPS
Standard                       : Component
Color space                    : YUV
Chroma subsampling             : 4:2:0
Bit depth                      : 8 bits
Scan type                      : Progressive
Bits/(Pixel*Frame)             : 0.093
Stream size                    : 4.07 GiB (98%)
Color range                    : Limited

Audio
Format                         : AAC LC
Format/Info                    : Advanced Audio Codec Low Complexity
Codec ID                       : A_AAC-2
Duration                       : 2 h 1 min
Bit rate                       : 93.4 kb/s
Channel(s)                     : 2 channels
Channel layout                 : L R
Sampling rate                  : 48.0 kHz
Frame rate                     : 46.875 FPS (1024 SPF)
Compression mode               : Lossy
Stream size                    : 81.5 MiB (2%)
Language                       : Chinese

截图




BT种子下载
梦幻天堂·龙网(www.321n.net).红毯先生.全民明星.torrent (22.01 KB, 下载次数: 3181)

1

主题

1508

帖子

4541

积分

赤血神龙

Rank: 20Rank: 20Rank: 20Rank: 20

积分
4541
QQ
发表于 2024-6-24 18:38:39 | 显示全部楼层
tks for share............

1

主题

30

帖子

930

积分

龙的传人

Rank: 13Rank: 13Rank: 13

积分
930
发表于 2024-6-24 19:36:46 | 显示全部楼层
感谢航子分享

1

主题

776

帖子

1601

积分

升龙霸·VIP

Rank: 22Rank: 22Rank: 22Rank: 22

积分
1601

龙网VIP·金勋

发表于 2024-6-24 19:51:31 | 显示全部楼层

感谢航子分享

1

主题

35

帖子

129

积分

龙网爱心高会

Rank: 18Rank: 18

积分
129

龙网爱心勋章

发表于 2024-6-24 20:24:26 | 显示全部楼层
航子,辛苦了!

1

主题

26

帖子

61

积分

泡泡龙

Rank: 5Rank: 5Rank: 5

积分
61
发表于 2024-6-24 20:26:05 | 显示全部楼层


多谢楼主分享的电影资源

0

主题

848

帖子

1222

积分

升龙霸·VIP

Rank: 22Rank: 22Rank: 22Rank: 22

积分
1222

龙网VIP·金勋

发表于 2024-6-24 20:35:09 | 显示全部楼层
感谢楼主分享
倘若我心中的山水,你眼中都看到,我便一步一莲花祈祷。

0

主题

3626

帖子

5091

积分

升龙霸·VIP

Rank: 22Rank: 22Rank: 22Rank: 22

积分
5091

龙网VIP·银勋

发表于 2024-6-24 20:36:39 | 显示全部楼层
感谢航子分享!

1

主题

28

帖子

93

积分

升龙霸·VIP

Rank: 22Rank: 22Rank: 22Rank: 22

积分
93

龙网VIP·金勋

发表于 2024-6-24 20:39:53 | 显示全部楼层
哇哦!!非常感谢楼主的分享,之前一直想看这部剧来着~

0

主题

231

帖子

273

积分

升龙霸·VIP

Rank: 22Rank: 22Rank: 22Rank: 22

积分
273

龙网VIP·银勋

发表于 2024-6-24 20:49:33 | 显示全部楼层
谢谢  谢谢   谢谢!

2

主题

2万

帖子

3万

积分

神界龙王

Rank: 30Rank: 30Rank: 30Rank: 30

积分
30344
发表于 2024-6-24 20:53:47 | 显示全部楼层
多谢航子分享
戏剧人生

1

主题

1万

帖子

2万

积分

神界龙王

Rank: 30Rank: 30Rank: 30Rank: 30

积分
21990

龙网爱心勋章

发表于 2024-6-24 21:05:16 | 显示全部楼层
产生了前所未有的兴奋
笑看红尘

0

主题

22

帖子

49

积分

升龙霸·VIP

Rank: 22Rank: 22Rank: 22Rank: 22

积分
49

龙网VIP·银勋

发表于 2024-6-24 21:23:39 | 显示全部楼层
这个好看嘛?

1

主题

801

帖子

2665

积分

赤血神龙

Rank: 20Rank: 20Rank: 20Rank: 20

积分
2665
QQ
发表于 2024-6-24 21:36:11 | 显示全部楼层
感谢分享好片

22

主题

6万

帖子

8万

积分

天地独尊龙王

梦幻天使

Rank: 33Rank: 33Rank: 33Rank: 33Rank: 33

积分
82694
发表于 2024-6-24 21:37:29 | 显示全部楼层
非常感谢航子无私分享精彩影片!
您需要登录后才可以回帖 登录 | 立即注册

本版积分规则

小黑屋|梦幻天堂·龙网

GMT+8, 2024-7-13 21:03 , Processed in 0.223095 second(s), 27 queries , Gzip On.

Powered by Discuz! X3.2

© 2001-2013 Comsenz Inc.

快速回复 返回顶部 返回列表