梦幻天堂·龙网

 找回密码
 立即注册
查看: 5725|回复: 63

[最新电影龙网转发] 【龙网转发】【宫崎骏2023必看】【你想活出怎样的人生】【WebDL-1080p.MKV】【中字】

[复制链接]

2905

主题

3万

帖子

7万

积分

九鼎龙王·坛主

偶系漂漂滴龙民

Rank: 46Rank: 46Rank: 46Rank: 46Rank: 46Rank: 46

积分
76098

航子大神勋章

发表于 2024-6-27 17:23:47 | 显示全部楼层 |阅读模式
海报





译  名 你想活出怎样的人生/苍鹭与少年(港/台)/男孩与苍鹭/你们是怎样活下去的
片  名 The Boy and the Heron
年  代 2023
国  家 日本
类  别 动画/奇幻/冒险
语  言 日语
字  幕 中简/中繁
评  分 7.6/10 from 329,211 users
链  接 https://movie.douban.com/subject/26925611
文件大小 6.28 GB
片  长 124 Min
导  演 宫崎骏 Hayao Miyazaki
主  演 山时聪真 Soma Santoki
     菅田将晖 Masaki Suda
     柴崎幸 Ko Shibasaki
     爱缪 Aimyon
     木村佳乃 Yoshino Kimura
     木村拓哉 Takuya Kimura
     竹下景子 Keiko Takeshita
     风吹淳 Jun Fubuki
     大竹忍 Shinobu Otake
     阿川佐和子 Sawako Agawa
     国村隼 Jun Kunimura

简介

  少年牧真人(山时聪真 配音)的母亲葬身火海后,他随父亲牧胜一(木村拓哉 配音)与继母夏子(木村佳乃 配音)组成新家庭。深陷悲伤的真人阴郁孤僻,难以融入新环境。一次意外,他跟随一只会说话的苍鹭(菅田将晖 配音)闯入废弃的神秘塔楼,却不料进入了奇幻的“亡灵世界”,开始了一场不可思议的冒险……

  影片片名致敬了小说家吉野源三郎在1937年发表的同名小说,但电影故事由宫崎骏原创。

Video
Format                         : AVC
Format/Info                    : Advanced Video Codec
Format profile                 : High@L4
Format settings                : CABAC / 4 Ref Frames
Format settings, CABAC         : Yes
Format settings, Reference fra : 4 frames
Codec ID                       : V_MPEG4/ISO/AVC
Duration                       : 2 h 3 min
Bit rate                       : 6 480 kb/s
Width                          : 1 920 pixels
Height                         : 1 036 pixels
Display aspect ratio           : 1.85:1
Frame rate mode                : Constant
Frame rate                     : 23.976 (24000/1001) FPS
Color space                    : YUV
Chroma subsampling             : 4:2:0
Bit depth                      : 8 bits
Scan type                      : Progressive
Bits/(Pixel*Frame)             : 0.136
Stream size                    : 5.61 GiB (89%)
Color range                    : Limited
Color primaries                : BT.709
Transfer characteristics       : BT.709
Matrix coefficients            : BT.709

Audio
Format                         : E-AC-3 JOC
Format/Info                    : Enhanced AC-3 with Joint Object Coding
Commercial name                : Dolby Digital Plus with Dolby Atmos
Codec ID                       : A_EAC3
Duration                       : 2 h 3 min
Bit rate mode                  : Constant
Bit rate                       : 768 kb/s
Channel(s)                     : 6 channels
Channel layout                 : L R C LFE Ls Rs
Sampling rate                  : 48.0 kHz
Frame rate                     : 31.250 FPS (1536 SPF)
Compression mode               : Lossy
Stream size                    : 681 MiB (11%)
Language                       : Japanese
Service kind                   : Complete Main
Complexity index               : 16
Number of dynamic objects      : 15
Bed channel count              : 1 channel
Bed channel configuration      : LFE

截图




BT种子下载:
梦幻天堂·龙网(www.321n.net).你想活出怎样的人生.苍鹭与少年.torrent (32.69 KB, 下载次数: 2096)

1

主题

8956

帖子

1万

积分

神界龙王

Rank: 30Rank: 30Rank: 30Rank: 30

积分
13233
发表于 2024-6-27 18:19:22 | 显示全部楼层
Thank you very much !!!

2

主题

963

帖子

2402

积分

赤血神龙

Rank: 20Rank: 20Rank: 20Rank: 20

积分
2402
发表于 2024-6-27 18:30:08 | 显示全部楼层
谢谢楼主分享

1

主题

1508

帖子

4541

积分

赤血神龙

Rank: 20Rank: 20Rank: 20Rank: 20

积分
4541
QQ
发表于 2024-6-27 18:33:40 | 显示全部楼层
tks for share............

1

主题

1954

帖子

5477

积分

海龙王

Rank: 25Rank: 25Rank: 25Rank: 25Rank: 25

积分
5477
发表于 2024-6-27 18:47:55 | 显示全部楼层
感謝航子分享精彩動畫電影!!

0

主题

3626

帖子

5091

积分

升龙霸·VIP

Rank: 22Rank: 22Rank: 22Rank: 22

积分
5091

龙网VIP·银勋

发表于 2024-6-27 18:52:07 | 显示全部楼层
感谢航子分享!

21

主题

2万

帖子

3万

积分

神界龙王

Rank: 30Rank: 30Rank: 30Rank: 30

积分
35646

龙网爱心勋章

发表于 2024-6-27 19:31:20 | 显示全部楼层
感谢航子发片分享

1

主题

801

帖子

2665

积分

赤血神龙

Rank: 20Rank: 20Rank: 20Rank: 20

积分
2665
QQ
发表于 2024-6-27 19:34:09 | 显示全部楼层
感謝航子分享

0

主题

2075

帖子

5322

积分

海龙王

Rank: 25Rank: 25Rank: 25Rank: 25Rank: 25

积分
5322
发表于 2024-6-27 19:43:14 | 显示全部楼层
感謝航子分享!

1

主题

825

帖子

1126

积分

神龙

Rank: 15Rank: 15Rank: 15

积分
1126
发表于 2024-6-27 20:27:31 | 显示全部楼层
感謝航子分享   

0

主题

665

帖子

2843

积分

赤血神龙

Rank: 20Rank: 20Rank: 20Rank: 20

积分
2843
发表于 2024-6-27 21:02:38 | 显示全部楼层
好動畫 好題材 支持一覽 感謝航子大大

0

主题

231

帖子

273

积分

升龙霸·VIP

Rank: 22Rank: 22Rank: 22Rank: 22

积分
273

龙网VIP·银勋

发表于 2024-6-27 21:02:49 | 显示全部楼层
谢谢  谢谢   谢谢!

2

主题

2万

帖子

3万

积分

神界龙王

Rank: 30Rank: 30Rank: 30Rank: 30

积分
30344
发表于 2024-6-27 21:04:24 | 显示全部楼层
谢谢分享
戏剧人生

1

主题

776

帖子

1601

积分

升龙霸·VIP

Rank: 22Rank: 22Rank: 22Rank: 22

积分
1601

龙网VIP·金勋

发表于 2024-6-27 21:25:29 | 显示全部楼层

谢谢楼主分享

1

主题

491

帖子

1497

积分

升龙霸·VIP

Rank: 22Rank: 22Rank: 22Rank: 22

积分
1497

龙网VIP·银勋

发表于 2024-6-27 22:03:27 | 显示全部楼层
谢谢楼主分享
ABR告诉我:没有行动的远见是白日梦,没有远见的行动是恶梦。
您需要登录后才可以回帖 登录 | 立即注册

本版积分规则

小黑屋|梦幻天堂·龙网

GMT+8, 2024-7-13 19:52 , Processed in 5.406051 second(s), 27 queries , Gzip On.

Powered by Discuz! X3.2

© 2001-2013 Comsenz Inc.

快速回复 返回顶部 返回列表