梦幻天堂·龙网

 找回密码
 立即注册
查看: 5975|回复: 49

[最新电影龙网转发] 【龙网转发】【中2024最新犯罪喜剧】【扫黑·决不放弃】【WebDL-2160p.MKV】【国语】

[复制链接]

2905

主题

3万

帖子

7万

积分

九鼎龙王·坛主

偶系漂漂滴龙民

Rank: 46Rank: 46Rank: 46Rank: 46Rank: 46Rank: 46

积分
76098

航子大神勋章

发表于 2024-6-30 17:25:37 | 显示全部楼层 |阅读模式
海报





译  名 扫黑·决不放弃/扫黑·拨云见日/拨云见日
片  名 Walk The Line
年  代 2024
国  家 中国
类  别 犯罪/喜剧
语  言 汉语普通话
字  幕 中英硬字幕
评  分 6.7/10 from 21,828 users
链  接 https://movie.douban.com/subject/35280899
文件大小 2.58 GB
片  长 115 Min
导  演 五百 Shubo Guo
主  演 肖央 Yang Xiao
     余皑磊 Ailei Yu
     范丞丞 Chengcheng Fan
     李诚儒 Chengru Li
     耿乐 Le Geng
     杨皓宇 Haoyu Yang
     焦刚 Gang Jiao
     石兆琪 Zhaoqi Shi
     李建义 Jianyi Li
     刘欢 Huan Liu
     张艺凡 Yifan Zhang

简介

  “扫黑风暴”继绿藤市之后席卷奎州,偏偏在督导组进驻的节骨眼儿上,李南北(肖央 饰)和俞青(范丞丞 饰)这对窝囊师徒竟意外抓获了潜逃多年的黑社会头目。一时之间,各方势力纷纷卷入,将矛头对准了于洪波(李诚儒 饰)和段毅(余皑磊 饰)带队的市公安局。黑恶势力正一步步进行着“合法洗白”,离奇旧案沉渣泛起,知名企业家、官员都被波及,调查过程历经生死,而对他们的考验,才刚刚开始。

Video
Format                         : HEVC
Format/Info                    : High Efficiency Video Coding
Format profile                 : Main@L5@Main
Codec ID                       : V_MPEGH/ISO/HEVC
Duration                       : 1 h 55 min
Bit rate                       : 2 946 kb/s
Width                          : 3 840 pixels
Height                         : 1 608 pixels
Display aspect ratio           : 2.40:1
Frame rate mode                : Variable
Frame rate                     : 23.944 FPS
Original frame rate            : 24.000 FPS
Color space                    : YUV
Chroma subsampling             : 4:2:0
Bit depth                      : 8 bits
Bits/(Pixel*Frame)             : 0.020
Stream size                    : 2.38 GiB (92%)

Audio
Format                         : E-AC-3
Format/Info                    : Enhanced AC-3
Commercial name                : Dolby Digital Plus
Codec ID                       : A_EAC3
Duration                       : 1 h 55 min
Bit rate mode                  : Constant
Bit rate                       : 256 kb/s
Channel(s)                     : 6 channels
Channel layout                 : L R C LFE Ls Rs
Sampling rate                  : 48.0 kHz
Frame rate                     : 31.250 FPS (1536 SPF)
Compression mode               : Lossy
Stream size                    : 211 MiB (8%)
Service kind                   : Complete Main

截图




BT种子下载:
梦幻天堂·龙网(www.321n.net).扫黑·决不放弃.扫黑·拨云见日.torrent (27.1 KB, 下载次数: 2003)

0

主题

231

帖子

273

积分

升龙霸·VIP

Rank: 22Rank: 22Rank: 22Rank: 22

积分
273

龙网VIP·银勋

发表于 2024-6-30 18:54:08 | 显示全部楼层
谢谢  谢谢   谢谢!

0

主题

1万

帖子

1万

积分

神界龙王

Rank: 30Rank: 30Rank: 30Rank: 30

积分
17509
QQ
发表于 2024-6-30 19:00:58 | 显示全部楼层
感谢航子分享
一切终会过去

0

主题

113

帖子

202

积分

龙少爷

Rank: 10Rank: 10

积分
202
发表于 2024-6-30 19:13:58 | 显示全部楼层
感谢航子分享

0

主题

848

帖子

1222

积分

升龙霸·VIP

Rank: 22Rank: 22Rank: 22Rank: 22

积分
1222

龙网VIP·金勋

发表于 2024-6-30 19:28:17 | 显示全部楼层
谢谢楼主分享佳片
倘若我心中的山水,你眼中都看到,我便一步一莲花祈祷。

0

主题

685

帖子

1781

积分

升龙霸·VIP

Rank: 22Rank: 22Rank: 22Rank: 22

积分
1781

龙网VIP·银徽龙网VIP·银牌龙网VIP·金勋

发表于 2024-6-30 19:30:03 | 显示全部楼层
感谢航子美女!跪求《功夫熊猫》1 2 3 蓝光1080P,想收藏一个系列!

1

主题

801

帖子

2665

积分

赤血神龙

Rank: 20Rank: 20Rank: 20Rank: 20

积分
2665
QQ
发表于 2024-6-30 19:42:39 | 显示全部楼层
谢谢楼主分享

0

主题

3943

帖子

5046

积分

海龙王

Rank: 25Rank: 25Rank: 25Rank: 25Rank: 25

积分
5046
发表于 2024-6-30 19:46:53 | 显示全部楼层
感谢航子分享精彩资源

0

主题

1430

帖子

2975

积分

赤血神龙

Rank: 20Rank: 20Rank: 20Rank: 20

积分
2975
发表于 2024-6-30 19:50:40 | 显示全部楼层
77777777777777777

1

主题

776

帖子

1601

积分

升龙霸·VIP

Rank: 22Rank: 22Rank: 22Rank: 22

积分
1601

龙网VIP·金勋

发表于 2024-6-30 20:14:14 | 显示全部楼层
谢谢  谢谢   谢谢!

1

主题

1508

帖子

4541

积分

赤血神龙

Rank: 20Rank: 20Rank: 20Rank: 20

积分
4541
QQ
发表于 2024-6-30 20:17:38 | 显示全部楼层
tks for share.............

2

主题

2万

帖子

3万

积分

神界龙王

Rank: 30Rank: 30Rank: 30Rank: 30

积分
30344
发表于 2024-6-30 20:29:45 | 显示全部楼层
多谢分享
戏剧人生

0

主题

343

帖子

3016

积分

赤血神龙

Rank: 20Rank: 20Rank: 20Rank: 20

积分
3016
发表于 2024-6-30 22:43:34 | 显示全部楼层
感谢航子,辛苦发片!!

467

主题

2万

帖子

2万

积分

神界龙王

Rank: 30Rank: 30Rank: 30Rank: 30

积分
27978

龙网爱心勋章

发表于 2024-6-30 23:45:16 | 显示全部楼层
感谢航子的分享

3

主题

936

帖子

1338

积分

龙网爱心高会

Rank: 18Rank: 18

积分
1338

龙网爱心勋章

发表于 2024-7-1 00:20:03 | 显示全部楼层
感谢航子的分享
您需要登录后才可以回帖 登录 | 立即注册

本版积分规则

小黑屋|梦幻天堂·龙网

GMT+8, 2024-7-13 20:25 , Processed in 0.233752 second(s), 27 queries , Gzip On.

Powered by Discuz! X3.2

© 2001-2013 Comsenz Inc.

快速回复 返回顶部 返回列表