梦幻天堂·龙网

 找回密码
 立即注册
查看: 3622|回复: 37

[最新电影龙网转发] 【龙网转发】【马东锡2024新动作犯罪猛片】【犯罪都市4】【WebDL-1080p.MKV】【中字】

[复制链接]

2905

主题

3万

帖子

7万

积分

九鼎龙王·坛主

偶系漂漂滴龙民

Rank: 46Rank: 46Rank: 46Rank: 46Rank: 46Rank: 46

积分
76098

航子大神勋章

发表于 5 天前 | 显示全部楼层 |阅读模式
海报





译  名 犯罪都市4/犯罪都市:铁拳清算(港)
片  名 The Roundup: Punishment
年  代 2024
国  家 韩国
类  别 动作/犯罪/惊悚
语  言 韩语
字  幕 中简/中繁
评  分 6.6/10 from 14,503 users
链  接 https://movie.douban.com/subject/36085987
文件大小 6.12 GB
片  长 109 Min
导  演 许明行 Heo Myeong Haeng
主  演 马东锡 Ma Dong-seok
     金武烈 Moo-yeol Kim
     李东辉 Dong-Hwi Lee
     朴智焕 Park Ji-hwan
     李主傧 Joo-bin Lee
     金敏载 Kim Min-jae
     金英熊 Young-woong Kim

简介

  “怪物刑警”马锡道(马东锡 饰)这次要对抗的是规模最大的网络非法赌博组织首脑白昌其(金武烈 饰),他是特种部队佣兵出身的恶徒;另外还要对付IT业界出身的天才CEO张东哲(李东辉 饰)。马锡道将与华丽回归的张夷秀(朴智焕 饰)、广搜队及网络搜查队合作,展开更胜以往的扫荡行动!

Video
Format                         : AVC
Format/Info                    : Advanced Video Codec
Format profile                 : Main@L5
Format settings                : CABAC / 6 Ref Frames
Format settings, CABAC         : Yes
Format settings, Reference fra : 6 frames
Format settings, GOP           : M=1, N=30
Codec ID                       : V_MPEG4/ISO/AVC
Duration                       : 1 h 49 min
Bit rate mode                  : Variable
Bit rate                       : 7 822 kb/s
Maximum bit rate               : 108 Mb/s
Width                          : 1 920 pixels
Height                         : 1 080 pixels
Display aspect ratio           : 16:9
Frame rate mode                : Constant
Frame rate                     : 24.000 FPS
Color space                    : YUV
Chroma subsampling             : 4:2:0
Bit depth                      : 8 bits
Scan type                      : Progressive
Bits/(Pixel*Frame)             : 0.157
Stream size                    : 5.97 GiB (97%)

Audio
Format                         : AAC LC
Format/Info                    : Advanced Audio Codec Low Complexity
Codec ID                       : A_AAC-2
Duration                       : 1 h 49 min
Bit rate                       : 192 kb/s
Channel(s)                     : 2 channels
Channel layout                 : L R
Sampling rate                  : 48.0 kHz
Frame rate                     : 46.875 FPS (1024 SPF)
Compression mode               : Lossy
Stream size                    : 151 MiB (2%)
Language                       : Korean

截图




BT种子下载:
梦幻天堂·龙网(www.321n.net).犯罪都市4.犯罪都市:铁拳清算.torrent (31.88 KB, 下载次数: 1113)

2

主题

963

帖子

2402

积分

赤血神龙

Rank: 20Rank: 20Rank: 20Rank: 20

积分
2402
发表于 5 天前 | 显示全部楼层
谢谢楼主分享

1

主题

801

帖子

2665

积分

赤血神龙

Rank: 20Rank: 20Rank: 20Rank: 20

积分
2665
QQ
发表于 5 天前 | 显示全部楼层
马哥一直那么猛

1

主题

1508

帖子

4541

积分

赤血神龙

Rank: 20Rank: 20Rank: 20Rank: 20

积分
4541
QQ
发表于 5 天前 | 显示全部楼层
tks for share................

0

主题

52

帖子

120

积分

升龙霸·VIP

Rank: 22Rank: 22Rank: 22Rank: 22

积分
120

龙网VIP·银勋

发表于 5 天前 | 显示全部楼层
航子发片辛苦了!

0

主题

317

帖子

800

积分

龙的传人

Rank: 13Rank: 13Rank: 13

积分
800
发表于 5 天前 | 显示全部楼层
东哥这个系列很猛,就像楼主也很猛。

1

主题

1954

帖子

5477

积分

海龙王

Rank: 25Rank: 25Rank: 25Rank: 25Rank: 25

积分
5477
发表于 5 天前 | 显示全部楼层
感謝航子分享精彩動作電影!!

2

主题

2万

帖子

3万

积分

神界龙王

Rank: 30Rank: 30Rank: 30Rank: 30

积分
30344
发表于 5 天前 | 显示全部楼层
多谢航子分享
戏剧人生

0

主题

343

帖子

3016

积分

赤血神龙

Rank: 20Rank: 20Rank: 20Rank: 20

积分
3016
发表于 5 天前 | 显示全部楼层
感谢航子,辛苦发片!!!

0

主题

231

帖子

273

积分

升龙霸·VIP

Rank: 22Rank: 22Rank: 22Rank: 22

积分
273

龙网VIP·银勋

发表于 5 天前 | 显示全部楼层
感谢  抱拳  

7

主题

264

帖子

1651

积分

神龙

Rank: 15Rank: 15Rank: 15

积分
1651
发表于 5 天前 | 显示全部楼层
多谢航子分享

0

主题

9704

帖子

1万

积分

神界龙王

Rank: 30Rank: 30Rank: 30Rank: 30

积分
10286
发表于 5 天前 | 显示全部楼层
韩国硬汉马东锡主演年度动作猛片,值得欣赏。感谢航子分享!

0

主题

531

帖子

1099

积分

神龙

Rank: 15Rank: 15Rank: 15

积分
1099
发表于 5 天前 | 显示全部楼层
多谢航子分享

1

主题

1538

帖子

2710

积分

赤血神龙

Rank: 20Rank: 20Rank: 20Rank: 20

积分
2710
发表于 4 天前 | 显示全部楼层
感谢航子分享!

0

主题

219

帖子

6703

积分

海龙王

Rank: 25Rank: 25Rank: 25Rank: 25Rank: 25

积分
6703
发表于 4 天前 | 显示全部楼层
感谢航子分享~
您需要登录后才可以回帖 登录 | 立即注册

本版积分规则

小黑屋|梦幻天堂·龙网

GMT+8, 2024-7-13 20:30 , Processed in 0.263296 second(s), 27 queries , Gzip On.

Powered by Discuz! X3.2

© 2001-2013 Comsenz Inc.

快速回复 返回顶部 返回列表