梦幻天堂·龙网

 找回密码
 立即注册
查看: 4434|回复: 34

[最新电影龙网转发] 【龙网转发】【美国2024动作喜剧】【比佛利山超级警探4】【WebDL-1080p.MKV】【中字】

[复制链接]

2905

主题

3万

帖子

7万

积分

九鼎龙王·坛主

偶系漂漂滴龙民

Rank: 46Rank: 46Rank: 46Rank: 46Rank: 46Rank: 46

积分
76098

航子大神勋章

发表于 4 天前 | 显示全部楼层 |阅读模式
海报



译  名 比佛利山超级警探4/比佛利山超级警探:艾索·福里/妙探出差:艾索福里
片  名 Beverly Hills Cop: Axel F
年  代 2024
国  家 美国
类  别 动作/喜剧/犯罪/惊悚
语  言 英语
字  幕 中简/中繁/英文
评  分 6.6/10 from 31,256 users
链  接 https://www.imdb.com/title/tt3083016
文件大小 4.66 GB
片  长 118 Min
导  演 马克·莫洛伊 Mark Molloy
主  演 艾迪·墨菲 Eddie Murphy
     祖德·莱茵霍尔德 Judge Reinhold
     约瑟夫·高登-莱维特 Joseph Gordon-Levitt
     约翰·阿什顿 John Ashton
     泰勒·佩姬 Taylour Paige
     凯文·贝肯 Kevin Bacon
     保罗·雷瑟 Paul Reiser
     布隆森·皮诺切特 Bronson Pinchot
     帕特里夏·贝尔彻 Patricia Belcher
     詹姆斯·普雷斯顿·罗杰斯 James Preston Rogers
     乔瓦尼·克鲁兹 Giovannie Cruz

简介

  侦探艾索·福里(艾迪·墨菲 饰)回到了比佛利山庄。在女儿的生命受到威胁后,她(泰勒·佩姬 饰)和福里与新搭档(约瑟夫·高登-莱维特 饰)、老朋友比利·罗斯伍德(祖德·莱茵霍尔德 饰)和约翰·塔格特(约翰·阿什顿 饰)联手,掀起了一场风波,揭露了一个阴谋。

Video
Format                         : AVC
Format/Info                    : Advanced Video Codec
Format profile                 : Main@L4
Format settings                : CABAC / 3 Ref Frames
Format settings, CABAC         : Yes
Format settings, Reference fra : 3 frames
Codec ID                       : V_MPEG4/ISO/AVC
Duration                       : 1 h 57 min
Bit rate mode                  : Variable
Bit rate                       : 5 000 kb/s
Maximum bit rate               : 7 500 kb/s
Width                          : 1 920 pixels
Height                         : 1 080 pixels
Display aspect ratio           : 16:9
Frame rate mode                : Constant
Frame rate                     : 24.000 FPS
Color space                    : YUV
Chroma subsampling             : 4:2:0
Bit depth                      : 8 bits
Scan type                      : Progressive
Bits/(Pixel*Frame)             : 0.100
Stream size                    : 4.02 GiB (86%)

Audio
Format                         : E-AC-3 JOC
Format/Info                    : Enhanced AC-3 with Joint Object Coding
Commercial name                : Dolby Digital Plus with Dolby Atmos
Codec ID                       : A_EAC3
Duration                       : 1 h 57 min
Bit rate mode                  : Constant
Bit rate                       : 768 kb/s
Channel(s)                     : 6 channels
Channel layout                 : L R C LFE Ls Rs
Sampling rate                  : 48.0 kHz
Frame rate                     : 31.250 FPS (1536 SPF)
Compression mode               : Lossy
Stream size                    : 648 MiB (14%)
Language                       : English
Service kind                   : Complete Main
Complexity index               : 16
Number of dynamic objects      : 15
Bed channel count              : 1 channel
Bed channel configuration      : LFE

截图




BT种子下载:
梦幻天堂·龙网(www.321n.net).比佛利山超级警探4.torrent (24.55 KB, 下载次数: 711)

0

主题

2594

帖子

4355

积分

赤血神龙

Rank: 20Rank: 20Rank: 20Rank: 20

积分
4355
发表于 4 天前 | 显示全部楼层
感谢分享。
很黄很暴力

0

主题

22

帖子

49

积分

升龙霸·VIP

Rank: 22Rank: 22Rank: 22Rank: 22

积分
49

龙网VIP·银勋

发表于 4 天前 | 显示全部楼层
谢谢航子分享!

0

主题

1万

帖子

1万

积分

神界龙王

Rank: 30Rank: 30Rank: 30Rank: 30

积分
17509
QQ
发表于 4 天前 | 显示全部楼层
感谢航子分享
一切终会过去

1

主题

801

帖子

2665

积分

赤血神龙

Rank: 20Rank: 20Rank: 20Rank: 20

积分
2665
QQ
发表于 4 天前 | 显示全部楼层
感謝航子分享影片

1

主题

1508

帖子

4541

积分

赤血神龙

Rank: 20Rank: 20Rank: 20Rank: 20

积分
4541
QQ
发表于 4 天前 | 显示全部楼层
tks for share............

0

主题

369

帖子

2352

积分

赤血神龙

Rank: 20Rank: 20Rank: 20Rank: 20

积分
2352
发表于 4 天前 | 显示全部楼层
多谢楼主分享的电影资源

0

主题

231

帖子

273

积分

升龙霸·VIP

Rank: 22Rank: 22Rank: 22Rank: 22

积分
273

龙网VIP·银勋

发表于 4 天前 | 显示全部楼层
谢谢  谢谢   谢谢!

1

主题

1954

帖子

5477

积分

海龙王

Rank: 25Rank: 25Rank: 25Rank: 25Rank: 25

积分
5477
发表于 4 天前 | 显示全部楼层
感謝航子分享精彩動作電影!!

0

主题

5281

帖子

7225

积分

升龙霸·VIP

Rank: 22Rank: 22Rank: 22Rank: 22

积分
7225

龙网VIP·银勋

发表于 4 天前 | 显示全部楼层

感謝航子分享精彩科幻電影!!

1

主题

776

帖子

1601

积分

升龙霸·VIP

Rank: 22Rank: 22Rank: 22Rank: 22

积分
1601

龙网VIP·金勋

发表于 4 天前 | 显示全部楼层
谢谢  谢谢   谢谢!

0

主题

82

帖子

557

积分

龙的传人

Rank: 13Rank: 13Rank: 13

积分
557
发表于 4 天前 | 显示全部楼层
谢谢楼主分享!

0

主题

258

帖子

725

积分

龙的传人

Rank: 13Rank: 13Rank: 13

积分
725
发表于 4 天前 | 显示全部楼层
感谢分享精彩影片

2

主题

2万

帖子

3万

积分

神界龙王

Rank: 30Rank: 30Rank: 30Rank: 30

积分
30344
发表于 4 天前 | 显示全部楼层
多谢分享
戏剧人生

1

主题

284

帖子

413

积分

升龙霸·VIP

Rank: 22Rank: 22Rank: 22Rank: 22

积分
413

龙网VIP·银勋

发表于 4 天前 | 显示全部楼层

感謝航子分享影片
您需要登录后才可以回帖 登录 | 立即注册

本版积分规则

小黑屋|梦幻天堂·龙网

GMT+8, 2024-7-13 21:02 , Processed in 0.230862 second(s), 27 queries , Gzip On.

Powered by Discuz! X3.2

© 2001-2013 Comsenz Inc.

快速回复 返回顶部 返回列表