梦幻天堂·龙网

 找回密码
 立即注册
查看: 5955|回复: 56

[最新电影龙网转发] 【龙网转发】【美国2024视效巨制】【猩球崛起:新世界】【WebDL-1080p.MKV】【中字】

[复制链接]

2905

主题

3万

帖子

7万

积分

九鼎龙王·坛主

偶系漂漂滴龙民

Rank: 46Rank: 46Rank: 46Rank: 46Rank: 46Rank: 46

积分
76098

航子大神勋章

发表于 4 天前 | 显示全部楼层 |阅读模式
系列前三部下载地址如下:
猩球崛起1    猩球崛起2    猩球崛起3


海报





译  名 猩球崛起:新世界/猩球崛起4:新世界/猿人争霸战:猩凶帝国(港) / 猩球崛起:王国诞生(台)/人猿星球国度
片  名 Kingdom of the Planet of the Apes
年  代 2024
国  家 美国
类  别 动作/科幻/冒险
语  言 英语
字  幕 中简/中繁/英文
评  分 6.3/10 from 44,277 users
链  接 https://movie.douban.com/subject/36069854
文件大小 7.36 GB
片  长 145 Min
导  演 韦斯·鲍尔 Wes Ball
主  演 欧文·泰格 Owen Teague
     弗蕾娅·艾伦 Freya Allan
     凯文·杜兰 Kevin Durand
     彼德·梅肯 Peter Macon
     威廉姆·H·梅西 William H. Macy
     艾卡·达维尔 Eka Darville
     特拉维斯·杰弗里 Travis Jeffery
     莉迪亚·佩克汉 Lydia Peckham
     尼尔·桑迪兰兹 Neil Sandilands
     迪辰·拉克曼 Dichen Lachman
     拉斯-塞缪尔·瓦尔达布兹 Ras-Samuel Welda'abzgi

简介

  故事设定在“猿流感”病毒蔓延全球的背景下,人类几近毁灭,而进化为高级智慧生物的猿类一跃成为食物链顶端的王者。时移世异,暴虐的猿类首领赛撒(凯文·杜兰 饰)在一片废墟中建立起猿族历史上的第一个帝国——“猩球”崛起,这是世界新秩序诞生的黎明时分。神秘的人类女孩诺娃(弗蕾娅·艾伦 饰)的出现,引起了赛撒的警觉。她似乎掌握着一个巨大的秘密,不仅关乎人类的存亡,甚至可能再度颠覆整个“猩球”。被迫逃亡的诺娃在躲避赛撒军队的过程中,与青年猿类诺亚(欧文·泰格 饰)的命运交汇,揭开了一段冒险的旅程。

Video
Format                         : AVC
Format/Info                    : Advanced Video Codec
Format profile                 : High@L4
Format settings                : CABAC / 5 Ref Frames
Format settings, CABAC         : Yes
Format settings, Reference fra : 5 frames
Codec ID                       : V_MPEG4/ISO/AVC
Duration                       : 2 h 24 min
Bit rate                       : 6 513 kb/s
Width                          : 1 918 pixels
Height                         : 802 pixels
Display aspect ratio           : 2.40:1
Frame rate mode                : Constant
Frame rate                     : 24.000 FPS
Color space                    : YUV
Chroma subsampling             : 4:2:0
Bit depth                      : 8 bits
Scan type                      : Progressive
Bits/(Pixel*Frame)             : 0.176
Stream size                    : 6.58 GiB (89%)
Color range                    : Limited
Color primaries                : BT.709
Transfer characteristics       : BT.709
Matrix coefficients            : BT.709

Audio
Format                         : E-AC-3 JOC
Format/Info                    : Enhanced AC-3 with Joint Object Coding
Commercial name                : Dolby Digital Plus with Dolby Atmos
Codec ID                       : A_EAC3
Duration                       : 2 h 24 min
Bit rate mode                  : Constant
Bit rate                       : 768 kb/s
Channel(s)                     : 6 channels
Channel layout                 : L R C LFE Ls Rs
Sampling rate                  : 48.0 kHz
Frame rate                     : 31.250 FPS (1536 SPF)
Compression mode               : Lossy
Stream size                    : 795 MiB (11%)
Language                       : English
Service kind                   : Complete Main
Complexity index               : 16
Number of dynamic objects      : 15
Bed channel count              : 1 channel
Bed channel configuration      : LFE

截图




BT种子下载:
梦幻天堂·龙网(www.321n.net).猩球崛起:新世界.猩球崛起:王国诞生.torrent (38.11 KB, 下载次数: 2379)

1

主题

1508

帖子

4541

积分

赤血神龙

Rank: 20Rank: 20Rank: 20Rank: 20

积分
4541
QQ
发表于 4 天前 | 显示全部楼层
tks for share..............

1

主题

1954

帖子

5477

积分

海龙王

Rank: 25Rank: 25Rank: 25Rank: 25Rank: 25

积分
5477
发表于 4 天前 | 显示全部楼层
感謝航子分享精彩科幻電影!!

0

主题

231

帖子

273

积分

升龙霸·VIP

Rank: 22Rank: 22Rank: 22Rank: 22

积分
273

龙网VIP·银勋

发表于 4 天前 | 显示全部楼层
谢谢  谢谢   谢谢!

0

主题

5281

帖子

7225

积分

升龙霸·VIP

Rank: 22Rank: 22Rank: 22Rank: 22

积分
7225

龙网VIP·银勋

发表于 4 天前 | 显示全部楼层

感謝航子分享精彩科幻電影!!

0

主题

6986

帖子

7864

积分

海龙王

Rank: 25Rank: 25Rank: 25Rank: 25Rank: 25

积分
7864
发表于 4 天前 | 显示全部楼层

多谢楼主分享的电影资源

0

主题

2075

帖子

5322

积分

海龙王

Rank: 25Rank: 25Rank: 25Rank: 25Rank: 25

积分
5322
发表于 4 天前 | 显示全部楼层
感謝航子分享!

0

主题

665

帖子

2843

积分

赤血神龙

Rank: 20Rank: 20Rank: 20Rank: 20

积分
2843
发表于 4 天前 | 显示全部楼层
好聲好影 支持一覽  感謝航子大大

1

主题

776

帖子

1602

积分

升龙霸·VIP

Rank: 22Rank: 22Rank: 22Rank: 22

积分
1602

龙网VIP·金勋

发表于 4 天前 | 显示全部楼层
谢谢  谢谢   谢谢!

0

主题

123

帖子

275

积分

龙少爷

Rank: 10Rank: 10

积分
275
发表于 4 天前 | 显示全部楼层
感谢分享!!!!!!

0

主题

258

帖子

725

积分

龙的传人

Rank: 13Rank: 13Rank: 13

积分
725
发表于 4 天前 | 显示全部楼层
感谢分享精彩影片

2

主题

2万

帖子

3万

积分

神界龙王

Rank: 30Rank: 30Rank: 30Rank: 30

积分
30359
发表于 4 天前 | 显示全部楼层
多谢分享
戏剧人生

1

主题

4700

帖子

6562

积分

海龙王

Rank: 25Rank: 25Rank: 25Rank: 25Rank: 25

积分
6562
发表于 4 天前 | 显示全部楼层
感谢楼主分享!!!!

1

主题

801

帖子

2665

积分

赤血神龙

Rank: 20Rank: 20Rank: 20Rank: 20

积分
2665
QQ
发表于 4 天前 | 显示全部楼层
正在看,谢谢

0

主题

685

帖子

1781

积分

升龙霸·VIP

Rank: 22Rank: 22Rank: 22Rank: 22

积分
1781

龙网VIP·银徽龙网VIP·银牌龙网VIP·金勋

发表于 4 天前 | 显示全部楼层
感谢航子大美女!跪求《功夫熊猫123》蓝光1080P,想收藏全集!
您需要登录后才可以回帖 登录 | 立即注册

本版积分规则

小黑屋|梦幻天堂·龙网

GMT+8, 2024-7-13 22:05 , Processed in 0.247693 second(s), 27 queries , Gzip On.

Powered by Discuz! X3.2

© 2001-2013 Comsenz Inc.

快速回复 返回顶部 返回列表