梦幻天堂·龙网

 找回密码
 立即注册
查看: 9757|回复: 79

[最新电影龙网转发] 【龙网转发】【扎导2024超视效】【月球叛军2:烙印之人】【WebDL-1080p.MKV】【中字】

[复制链接]

2905

主题

3万

帖子

7万

积分

九鼎龙王·坛主

偶系漂漂滴龙民

Rank: 46Rank: 46Rank: 46Rank: 46Rank: 46Rank: 46

积分
76098

航子大神勋章

发表于 2024-4-22 17:23:37 | 显示全部楼层 |阅读模式
月球叛军第一部的下载地址请点击这里

海报



译  名 月球叛军2:烙印之人/月球叛军2
片  名 Rebel Moon - Part Two: The Scargiver
年  代 2024
国  家 美国
类  别 动作/科幻/奇幻/冒险
语  言 英语
字  幕 中简/中繁/英文
评  分 4.9/10 from 2,244 users
链  接 https://movie.douban.com/subject/36464391
文件大小 4.86 GB
片  长 122 Min
导  演 扎克·施奈德 Zack Snyder
主  演 索菲亚·波多拉 Sofia Boutella
     查理·汉纳姆 Charlie Hunnam
     加利·艾尔维斯 Cary Elwes
     安东尼·霍普金斯 Anthony Hopkins
     杰曼·翰苏 Djimon Hounsou
     裴斗娜 Doona Bae
     吉娜·马隆 Jena Malone
     寇瑞·斯托尔 Corey Stoll
     艾德·斯克林 Ed Skrein
     米希尔·赫伊斯曼 Michiel Huisman
     斯图尔特·马丁 Stuart Martin

简介

  延续第一部的史诗故事,柯拉(索菲亚·波多拉 Sofia Boutella 饰)与幸存的战士准备好豁出一切,与勇敢的碧草星居民并肩作战,即使村落不复往日和平,仍是对抗母星失败的人们寻得的新家园,这一切,就靠他们来守护。最终大战前夕,这群战士必须面对各自的过往,也揭露他们究竟为何而战。当叛军势力星火燎原,王国大军倾巢而出准备平息动乱,战友情谊益发坚定,英雄崭露头角,不朽传奇也于焉诞生。

Video
Format                         : AVC
Format/Info                    : Advanced Video Codec
Format profile                 : Main@L4
Format settings                : CABAC / 3 Ref Frames
Format settings, CABAC         : Yes
Format settings, Reference fra : 3 frames
Codec ID                       : V_MPEG4/ISO/AVC
Duration                       : 2 h 3 min
Bit rate mode                  : Variable
Bit rate                       : 5 000 kb/s
Maximum bit rate               : 7 500 kb/s
Width                          : 1 920 pixels
Height                         : 1 080 pixels
Display aspect ratio           : 16:9
Frame rate mode                : Constant
Frame rate                     : 24.000 FPS
Color space                    : YUV
Chroma subsampling             : 4:2:0
Bit depth                      : 8 bits
Scan type                      : Progressive
Bits/(Pixel*Frame)             : 0.100
Stream size                    : 4.19 GiB (86%)

Audio
Format                         : E-AC-3 JOC
Format/Info                    : Enhanced AC-3 with Joint Object Coding
Commercial name                : Dolby Digital Plus with Dolby Atmos
Codec ID                       : A_EAC3
Duration                       : 2 h 3 min
Bit rate mode                  : Constant
Bit rate                       : 768 kb/s
Channel(s)                     : 6 channels
Channel layout                 : L R C LFE Ls Rs
Sampling rate                  : 48.0 kHz
Frame rate                     : 31.250 FPS (1536 SPF)
Compression mode               : Lossy
Stream size                    : 681 MiB (14%)
Language                       : English
Service kind                   : Complete Main
Complexity index               : 16
Number of dynamic objects      : 15
Bed channel count              : 1 channel
Bed channel configuration      : LFE

截图




BT种子下载
梦幻天堂·龙网(www.321n.net).月球叛军2:烙印之人.torrent (25.53 KB, 下载次数: 2297)

1

主题

801

帖子

2665

积分

赤血神龙

Rank: 20Rank: 20Rank: 20Rank: 20

积分
2665
QQ
发表于 2024-4-22 18:53:33 | 显示全部楼层
坐沙发,谢谢分享

0

主题

343

帖子

3016

积分

赤血神龙

Rank: 20Rank: 20Rank: 20Rank: 20

积分
3016
发表于 2024-4-22 19:51:14 | 显示全部楼层
感谢航子,辛苦发片!

0

主题

1万

帖子

1万

积分

神界龙王

Rank: 30Rank: 30Rank: 30Rank: 30

积分
17509
QQ
发表于 2024-4-22 20:12:34 | 显示全部楼层
感谢航子分享
一切终会过去

22

主题

6万

帖子

8万

积分

天地独尊龙王

梦幻天使

Rank: 33Rank: 33Rank: 33Rank: 33Rank: 33

积分
82694
发表于 2024-4-22 20:20:22 | 显示全部楼层
非常感谢航子无私分享精彩影片!

1

主题

523

帖子

1373

积分

神龙

Rank: 15Rank: 15Rank: 15

积分
1373
发表于 2024-4-22 20:36:22 | 显示全部楼层
十分感谢分享影片啊航子

2

主题

2万

帖子

3万

积分

神界龙王

Rank: 30Rank: 30Rank: 30Rank: 30

积分
30344
发表于 2024-4-22 20:45:40 | 显示全部楼层
多谢航子分享
戏剧人生

0

主题

900

帖子

2238

积分

赤血神龙

Rank: 20Rank: 20Rank: 20Rank: 20

积分
2238
发表于 2024-4-22 20:57:55 | 显示全部楼层
感謝分享!辛苦了航子美女!

0

主题

552

帖子

1396

积分

神龙

Rank: 15Rank: 15Rank: 15

积分
1396
发表于 2024-4-22 21:08:25 | 显示全部楼层
THANKS FOR SHARING!

0

主题

445

帖子

2459

积分

赤血神龙

Rank: 20Rank: 20Rank: 20Rank: 20

积分
2459
发表于 2024-4-22 21:21:40 | 显示全部楼层
最新大片,谢谢航子
笑看庭前花开花落

0

主题

685

帖子

1781

积分

升龙霸·VIP

Rank: 22Rank: 22Rank: 22Rank: 22

积分
1781

龙网VIP·银徽龙网VIP·银牌龙网VIP·金勋

发表于 2024-4-22 21:30:49 | 显示全部楼层
感谢女神!跪求蓝光1080P!

1

主题

1508

帖子

4541

积分

赤血神龙

Rank: 20Rank: 20Rank: 20Rank: 20

积分
4541
QQ
发表于 2024-4-22 21:36:09 | 显示全部楼层
tks for share.............

0

主题

65

帖子

128

积分

龙之子

Rank: 8Rank: 8Rank: 8Rank: 8

积分
128
发表于 2024-4-22 21:39:45 | 显示全部楼层

十分感谢分享影片啊航子

0

主题

5281

帖子

7225

积分

升龙霸·VIP

Rank: 22Rank: 22Rank: 22Rank: 22

积分
7225

龙网VIP·银勋

发表于 2024-4-22 21:43:41 | 显示全部楼层

多谢航子分享

1

主题

1万

帖子

2万

积分

神界龙王

Rank: 30Rank: 30Rank: 30Rank: 30

积分
21990

龙网爱心勋章

发表于 2024-4-22 22:11:57 | 显示全部楼层
期待已久的片子
笑看红尘
您需要登录后才可以回帖 登录 | 立即注册

本版积分规则

小黑屋|梦幻天堂·龙网

GMT+8, 2024-7-13 19:58 , Processed in 0.799383 second(s), 29 queries , Gzip On.

Powered by Discuz! X3.2

© 2001-2013 Comsenz Inc.

快速回复 返回顶部 返回列表